AEROSE.RU

TOTO TOTO - Turn Back

TOTO TOTO - Toto (reissue)

TOTO TOTO - Isolation

Унитаз подвесной Toto SX CW532Y


35000 RUR
SX CW532Y Toto

Toto / SX CW532Y / похожие

Подробнее

Унитаз подвесной Toto SG CW512YR


49000 RUR
SG CW512YR Toto

Toto / SG CW512YR / похожие

Подробнее

TOTO TOTO - Hydra

TOTO TOTO - Fahrenheit

Биде подвесное Toto MH BW10045G1#XW

Приставной безободковый унитаз Toto MH CW163Y#XW

Подвесной безободковый унитаз Toto NC CW762Y

Turn Back (album) - Wikipedia

Turn Back is the third studio album by the American rock group Toto released in 1981. Although it yielded the band's first top-ten hit in Japan and steady sales in that country, the album was a commercial disappointment elsewhere, failing to produce any charting singles and selling approximately 900,000 copies worldwide.

Turn Back - Toto: Amazon.de: Musik

Toto standen da Acts wie Journey und Survivor in nichts nach, sodass "Turn Back" meiner Meinung nach vollkommen unterbewertet ist. Es fehlt sicher das Funk-Element der Vorgänger, dafür steht Rock im Vordergrund. Toto waren aber immer in allen Stilrichtungen zuhause. Steve Lukather spielt auf "Turn Back" eine gute Gitarre. Er flangert, was 1981 nicht Alltag war. Das allein macht das Album spannend. Gut - das ist was sehr technisches: aufsplitten des Audiosignals bei der Aufnahme. Aber die ...

Turn Back by Toto - Toto: Amazon.de: Musik

Bewertung, Turn Back by Toto. Wählen Sie Ihre Cookie-Einstellungen. Wir verwenden Cookies und ähnliche Tools, um Ihr Einkaufserlebnis zu verbessern, um unsere Dienste anzubieten, um zu verstehen, wie die Kunden unsere Dienste nutzen, damit wir Verbesserungen vornehmen können, und um Werbung anzuzeigen. Zugelassene Drittanbieter verwenden diese Tools auch in Verbindung mit der Anzeige von ...

Toto - Turn Back | Releases, Reviews, Credits | Discogs

Analyzed: Toto / Turn Back [UK Rock Candy 1981/2014 CD] -----DR Peak RMS Duration Track-----DR16 -0.20 dB -17.89 dB 4:02 01-Gift With A Golden Gun DR16 -0.20 dB -18.57 dB 6:08 02-English Eyes DR15 -0.20 dB -17.52 dB 4:01 03-Live For Today DR15 -0.32 dB -21.14 dB 4:38 04-A Million Miles Away DR13 -0.20 dB -14.51 dB 4:54 05-Goodbye Elenore DR13 -0.20 dB -15.75 dB 5:20 06-I Think I Could Stand ...

Toto - Turn Back [1980] - Full Album - YouTube

0:00. Gift With A Golden Gun04:01. English Eyes10:09. Live For Today14:10. A Million Miles Away18:48. Goodbye Elenore23:42. I Think I Could Stand You Forever...

Toto - Turn Back - YouTube

Great forgotten song by a great band

Turn Back - Toto | Songs, Reviews, Credits | AllMusic

Toto went from disappointment to disaster with its third album, the generic Turn Back. The group's ability to turn out highly competent studio rock was not translating into an individual sound, and since Turn Back had no memorable songs on it, one was left with nothing more than those famous chops that Toto possessed in abundance. The group would rally from this retreat, but for the moment a better title would have been Fall Back, as in, the bandmembers always had their studio jobs to fall ...

Turn Back (Lim.Collector'S Edition): Amazon.de: Musik

Rock triumph, TURN BACK flew beneath the radar and barely caused a blip on the charts before disappearing from sight. The fact that their follow up album Toto IV has won an unprecedented seven Grammys and contained three top 10 hit singles only seems to emphasize the point. Originally issued in 1981, it found the band taking a far more aggressive approach, dialing down the keyboards and upping the guitar quota by a considerable margin. Once again, much of the material was written or co ...

Toto - Turn Back (1981, CTH Pressing, Vinyl) | Discogs

View credits, reviews, tracks and shop for the 1981 CTH Pressing Vinyl release of Turn Back on Discogs.

Toto - Turn Back | Veröffentlichungen, Rezensionen ...

Erfahren Sie mehr über Veröffentlichungen und Lieder von Toto - Turn Back auf Discogs. Lesen Sie Rezensionen und informieren Sie sich über beteiligte Personen. Kaufen Sie Platten und CDs und vervollständigen Sie Ihre Toto-Sammlung.

Toto - Turn Back (2014, CD) | Discogs

Analyzed: Toto / Turn Back [UK Rock Candy 1981/2014 CD] DR Peak RMS Duration Track DR16 -0.20 dB -17.89 dB 4:02 01-Gift With A Golden Gun

Turn Back by TOTO - TOTO: Amazon.de: Musik

Amazon.de/musik: TOTO – Turn Back by TOTO jetzt kaufen. Bewertung 4.1, .

Toto (1978) Toto and Turn Back [Vinyl LP]: Amazon.de: Musik

Toto (1978) Toto and Turn Back [Vinyl LP]: Amazon.de: Musik Wählen Sie Ihre Cookie-Einstellungen Wir verwenden Cookies und ähnliche Tools, um Ihr Einkaufserlebnis zu verbessern, um unsere Dienste anzubieten, um zu verstehen, wie die Kunden unsere Dienste nutzen, damit wir Verbesserungen vornehmen können, und um Werbung anzuzeigen.

Toto: Turn Back (remastered) (LP) – jpc

Die LP Toto: Turn Back (remastered) jetzt portofrei für 19,99 Euro kaufen. Mehr von Toto gibt es im Shop.

Toto – Turn Back Lyrics | Genius Lyrics

Turn Back Toto. Produced by Geoff Workman & Toto. Album Turn Back. Turn Back Lyrics [Verse 1] Only the wind sang the words he could hear Born of the sand, washed ashore on a tear Time wrote the ...

Turn Back by Toto on Amazon Music - Amazon.com

Check out Turn Back by Toto on Amazon Music. Stream ad-free or purchase CD's and MP3s now on Amazon.com.

Toto - Turn Back CD günstig kaufen | eBay

Finden Sie Top-Angebote für Toto - Turn Back CD bei eBay. Kostenlose Lieferung für viele Artikel!

Toto - Turn Back - Amazon.com Music

Toto - Turn Back - Amazon.com Music. Skip to main content.us. Hello Select your address CDs & Vinyl. Hello, Sign in ... Turn Back Toto Format: Audio CD. 4.6 out of 5 stars 107 ratings. See all 24 formats and editions Hide other formats and editions. Listen Now with Amazon Music : Turn Back "Please retry" Amazon Music Unlimited: Price New from Used from MP3 Music, January 1, 1981 "Please retry ...

Toto - Turn Back | リリース、レビュー、クレジット | Discogs

Discogs で Toto - Turn Back に関するリリース、レビュー、クレジット、楽曲などを発見し、レコードや CD を購入して Toto のコレクションを完成させましょう。

Toto: Turn Back (Limited Vinyl Replica Collection) (CD) – jpc

Die CD Toto: Turn Back (Limited Vinyl Replica Collection) jetzt probehören und portofrei für 20,99 Euro kaufen. Mehr von Toto gibt es im Shop.

‎Turn Back by Toto on Apple Music

Listen to Turn Back by Toto on Apple Music. Stream songs including "Gift With a Golden Gun", "English Eyes" and more.

Toto - Turn Back: Songtexte und Songs | Deezer

Höre Turn Back von Toto auf Deezer. Gift with a Golden Gun, English Eyes, Live for Today ...

swedishcharts.com - Toto - Turn Back

TOTO - TURN BACK (ALBUM) Label: CBS: Entry: 1981-01-30 (Position 34) Last week in charts: 1981-03-27 (Position 50) Peak: 16 (1 weeks) Weeks: 5Place on best of all time: 5326 (357 points) Year: 1981: World wide: de : Peak: 39 / weeks: 9: se : Peak: 16 / weeks: 5: no : Peak: 4 / weeks: 10: CD CBS CDCBS 84609 (at) TRACKS: 1981-01-01. LP Columbia FC 36813 [us] / EAN 0074643681315: 1981-01. LP CBS ...

TOTO - Turn Back - Amazon.com Music

Rock triumph, TURN BACK flew beneath the radar and barely caused a blip on the charts before disappearing from sight. The fact that their follow up album Toto IV has won an unprecedented seven Grammys and contained three top 10 hit singles only seems to emphasize the point. Originally issued in 1981, it found the band taking a far more aggressive approach, dialing down the keyboards and upping ...

Turn Back — Toto | Last.fm

Listen free to Toto – Turn Back (Gift With a Golden Gun, English Eyes and more). 8 tracks (37:36). Discover more music, concerts, videos, and pictures with the largest catalogue online at Last.fm.

Toto - Turn Back - Amazon.com Music

Toto - Turn Back - Amazon.com Music. Skip to main content.us. Hello Select ... Toto's music is timeless - with its own magic. I love love love Toto and especially this very early album TURN BACK. I wore out my album and bought the CD! Read more. Helpful. Report abuse. Kevin L Taylor. 3.0 out of 5 stars So so effort for Toto. Reviewed in the United States on January 23, 2017 . Verified Purchase ...

TOTO - Turn Back (Japan Mini LP CD MHCP-611) von 2005 mit ...

Finden Sie Top-Angebote für TOTO - Turn Back (Japan Mini LP CD MHCP-611) von 2005 mit OBI ! bei eBay. Kostenlose Lieferung für viele Artikel!

Toto: All In - The CDs (13 CDs) – jpc.de

»Toto« (1978) »Hydra« (1979) »Turn Back« (1981) »IV« (1982) »Isolation« (1984) »Fahrenheit« (1986) »The Seventh One« (1988) »Kingdom Of Desire« (1992) »Tambu« (1995) »Mindfields« (1999) »Toto XX« (Kompilation)(1998)« »Live In Tokyo 1980«-EP »Old Is New« (Unveröffentlichte Aufnahmen) Alle Aufnahmen der »All In – The CDs«-Box haben Toto gemeinsam mit Elliot ...

Toto (Band)/Diskografie – Wikipedia

Diese Diskografie ist eine Übersicht über die musikalischen Werke der kalifornischen Rockband Toto. Den Quellenangaben zufolge hat sie bisher in ihrer Karriere über 29,6 Millionen Tonträger verkauft, davon alleine in ihrer Heimat über 15,5 Millionen. Die erfolgreichste Veröffentlichung von Toto ist das Album Toto IV mit über zwölf Millionen verkauften Einheiten. Alben Studioalben. Jahr ...

Унитаз подвесной Toto RX CW522EY


41500 RUR
RX CW522EY Toto

Toto / RX CW522EY / похожие

Подробнее

Унитаз подвесной Toto RX CW542EY


37400 RUR
RX CW542EY Toto

Toto / RX CW542EY / похожие

Подробнее

TOTO TOTO - Old Is New

Africa by Toto


Africa by Toto

999 RUR
Printbar

Printbar / / похожие

Подробнее

Africa by Toto


Africa by Toto

999 RUR
Printbar

Printbar / / похожие

Подробнее

TOTO TOTO - The Seventh One

Подвесной безободковый унитаз Toto SP CW532Y

Подвесной безободковый унитаз Toto RP CW552Y

Раковина 54х46 см Toto Public LW765Y#XW

Подвесной безободковый унитаз Toto MH CW162Y#XW

aerose.ru — Каталог цен и описаний на компьютерную и бытовую технику, товары для офис и дома, электронику, товаров для сада и дачи. Мы занимаемся поиском лучших цен в интернет магазинах по всей России, знаем где купить TOTO TOTO Turn Back по оптимальной цене в онлайн-магазинах. На нашем сайте aerose.ru предоставлена вся необходимая информация для правильной покупки TOTO TOTO Turn Back — фотографии товаров, отзывы пользователей, поиск по модели и производителю, наименованию или модели, инструкции по эксплуатации, а так же экспертные обзоры, сайты предлагающие покупу онлайн с доставкой заказа в ваш город.